  0
SECTION
  2
HEADER
  9
$ACADVER
  1
AC1009
  9
$DWGCODEPAGE
  3
ansi_1252
  9
$INSBASE
 10
0.0
 20
0.0
 30
0.0
  9
$EXTMIN
 10
-33.46876219430138
 20
-1.43
 30
0.0
  9
$EXTMAX
 10
1551.69485415017
 20
2833.049478694752
 30
0.0
  9
$LIMMIN
 10
0.0
 20
0.0
  9
$LIMMAX
 10
12.0
 20
9.0
  9
$ORTHOMODE
 70
     0
  9
$REGENMODE
 70
     1
  9
$FILLMODE
 70
     1
  9
$QTEXTMODE
 70
     0
  9
$MIRRTEXT
 70
     1
  9
$DRAGMODE
 70
     2
  9
$LTSCALE
 40
1.0
  9
$OSMODE
 70
    37
  9
$ATTMODE
 70
     1
  9
$TEXTSIZE
 40
0.2
  9
$TRACEWID
 40
0.05
  9
$TEXTSTYLE
  7
STANDARD
  9
$CLAYER
  8
QUOTE
  9
$CELTYPE
  6
BYLAYER
  9
$CECOLOR
 62
   256
  9
$DIMSCALE
 40
1.0
  9
$DIMASZ
 40
0.18
  9
$DIMEXO
 40
0.0625
  9
$DIMDLI
 40
0.38
  9
$DIMRND
 40
0.0
  9
$DIMDLE
 40
0.0
  9
$DIMEXE
 40
0.18
  9
$DIMTP
 40
0.0
  9
$DIMTM
 40
0.0
  9
$DIMTXT
 40
0.18
  9
$DIMCEN
 40
0.09
  9
$DIMTSZ
 40
0.0
  9
$DIMTOL
 70
     0
  9
$DIMLIM
 70
     0
  9
$DIMTIH
 70
     1
  9
$DIMTOH
 70
     1
  9
$DIMSE1
 70
     0
  9
$DIMSE2
 70
     0
  9
$DIMTAD
 70
     0
  9
$DIMZIN
 70
     0
  9
$DIMBLK
  1

  9
$DIMASO
 70
     1
  9
$DIMSHO
 70
     1
  9
$DIMPOST
  1

  9
$DIMAPOST
  1

  9
$DIMALT
 70
     0
  9
$DIMALTD
 70
     2
  9
$DIMALTF
 40
25.4
  9
$DIMLFAC
 40
1.0
  9
$DIMTOFL
 70
     0
  9
$DIMTVP
 40
0.0
  9
$DIMTIX
 70
     0
  9
$DIMSOXD
 70
     0
  9
$DIMSAH
 70
     0
  9
$DIMBLK1
  1

  9
$DIMBLK2
  1

  9
$DIMSTYLE
  2
STANDARD_ACAD
  9
$DIMCLRD
 70
     0
  9
$DIMCLRE
 70
     0
  9
$DIMCLRT
 70
     0
  9
$DIMTFAC
 40
1.0
  9
$DIMGAP
 40
0.09
  9
$LUNITS
 70
     2
  9
$LUPREC
 70
     3
  9
$SKETCHINC
 40
0.1
  9
$FILLETRAD
 40
0.0
  9
$AUNITS
 70
     0
  9
$AUPREC
 70
     0
  9
$MENU
  1
.
  9
$ELEVATION
 40
0.0
  9
$PELEVATION
 40
0.0
  9
$THICKNESS
 40
0.0
  9
$LIMCHECK
 70
     0
  9
$CHAMFERA
 40
0.0
  9
$CHAMFERB
 40
0.0
  9
$SKPOLY
 70
     0
  9
$TDCREATE
 40
2460656.617879294
  9
$TDUPDATE
 40
2460656.617891216
  9
$TDINDWG
 40
0.0000000116
  9
$TDUSRTIMER
 40
0.0000000116
  9
$USRTIMER
 70
     1
  9
$ANGBASE
 50
0.0
  9
$ANGDIR
 70
     0
  9
$PDMODE
 70
     0
  9
$PDSIZE
 40
0.0
  9
$PLINEWID
 40
0.0
  9
$COORDS
 70
     1
  9
$SPLFRAME
 70
     0
  9
$SPLINETYPE
 70
     6
  9
$SPLINESEGS
 70
     8
  9
$ATTDIA
 70
     0
  9
$ATTREQ
 70
     1
  9
$HANDLING
 70
     1
  9
$HANDSEED
  5
15B
  9
$SURFTAB1
 70
     6
  9
$SURFTAB2
 70
     6
  9
$SURFTYPE
 70
     6
  9
$SURFU
 70
     6
  9
$SURFV
 70
     6
  9
$UCSNAME
  2

  9
$UCSORG
 10
0.0
 20
0.0
 30
0.0
  9
$UCSXDIR
 10
1.0
 20
0.0
 30
0.0
  9
$UCSYDIR
 10
0.0
 20
1.0
 30
0.0
  9
$PUCSNAME
  2

  9
$PUCSORG
 10
0.0
 20
0.0
 30
0.0
  9
$PUCSXDIR
 10
1.0
 20
0.0
 30
0.0
  9
$PUCSYDIR
 10
0.0
 20
1.0
 30
0.0
  9
$USERI1
 70
     0
  9
$USERI2
 70
     0
  9
$USERI3
 70
     0
  9
$USERI4
 70
     0
  9
$USERI5
 70
     0
  9
$USERR1
 40
0.0
  9
$USERR2
 40
0.0
  9
$USERR3
 40
0.0
  9
$USERR4
 40
0.0
  9
$USERR5
 40
0.0
  9
$WORLDVIEW
 70
     1
  9
$SHADEDGE
 70
     3
  9
$SHADEDIF
 70
    70
  9
$TILEMODE
 70
     1
  9
$MAXACTVP
 70
    64
  9
$PLIMCHECK
 70
     0
  9
$PEXTMIN
 10
0.0
 20
0.0
 30
0.0
  9
$PEXTMAX
 10
0.0
 20
0.0
 30
0.0
  9
$PLIMMIN
 10
0.0
 20
0.0
  9
$PLIMMAX
 10
12.0
 20
9.0
  9
$UNITMODE
 70
     0
  9
$VISRETAIN
 70
     1
  9
$PLINEGEN
 70
     0
  9
$PSLTSCALE
 70
     1
  0
ENDSEC
  0
SECTION
  2
TABLES
  0
TABLE
  2
VPORT
 70
     1
  0
VPORT
  2
*ACTIVE
 70
     0
 10
0.0
 20
0.0
 11
1.0
 21
1.0
 12
10.42990654205607
 22
4.5
 13
0.0
 23
0.0
 14
0.5
 24
0.5
 15
0.5
 25
0.5
 16
0.0
 26
0.0
 36
1.0
 17
0.0
 27
0.0
 37
0.0
 40
9.0
 41
1.972972972850329
 42
50.0
 43
0.0
 44
0.0
 50
0.0
 51
0.0
 71
     0
 72
   100
 73
     1
 74
     3
 75
     0
 76
     0
 77
     0
 78
     0
  0
ENDTAB
  0
TABLE
  2
LTYPE
 70
     1
  0
LTYPE
  2
CONTINUOUS
 70
     0
  3
Solid line
 72
    65
 73
     0
 40
0.0
  0
ENDTAB
  0
TABLE
  2
LAYER
 70
     5
  0
LAYER
  2
0
 70
     0
 62
     7
  6
CONTINUOUS
  0
LAYER
  2
QUOTE
 70
     0
 62
     1
  6
CONTINUOUS
  0
LAYER
  2
DEFPOINTS
 70
     0
 62
     7
  6
CONTINUOUS
  0
LAYER
  2
MAKE2D$VISIBILE$CURVE
 70
     0
 62
     7
  6
CONTINUOUS
  0
LAYER
  2
MAKE2D$VISIBILE$CURVESILHO
 70
     0
 62
     7
  6
CONTINUOUS
  0
ENDTAB
  0
TABLE
  2
STYLE
 70
     2
  0
STYLE
  2
STANDARD
 70
     0
 40
0.0
 41
1.0
 50
0.0
 71
     0
 42
0.2
  3
txt
  4

  0
STYLE
  2
EDO
 70
     0
 40
0.0
 41
1.0
 50
0.0
 71
     0
 42
0.2
  3
arial.ttf
  4

  0
ENDTAB
  0
TABLE
  2
VIEW
 70
     0
  0
ENDTAB
  0
TABLE
  2
UCS
 70
     0
  0
ENDTAB
  0
TABLE
  2
APPID
 70
     3
  0
APPID
  2
ACAD
 70
     0
  0
APPID
  2
RHINO
 70
     0
  0
APPID
  2
ACADANNOTATIVE
 70
     0
  0
ENDTAB
  0
TABLE
  2
DIMSTYLE
 70
     2
  0
DIMSTYLE
  2
STANDARD_ACAD
 70
     0
  3

  4

  5

  6

  7

 40
1.0
 41
0.18
 42
0.0625
 43
0.38
 44
0.18
 45
0.0
 46
0.0
 47
0.0
 48
0.0
140
0.18
141
0.09
142
0.0
143
25.4
144
1.0
145
0.0
146
1.0
147
0.09
 71
     0
 72
     0
 73
     1
 74
     1
 75
     0
 76
     0
 77
     0
 78
     0
170
     0
171
     2
172
     0
173
     0
174
     0
175
     0
176
     0
177
     0
178
     0
  0
DIMSTYLE
  2
EDO
 70
     0
  3

  4

  5

  6

  7

 40
1.0
 41
25.0
 42
0.5
 43
0.38
 44
5.0
 45
0.0
 46
0.0
 47
0.0
 48
0.0
140
25.0
141
0.5
142
0.0
143
1.0
144
1.0
145
0.0
146
1.0
147
5.0
 71
     0
 72
     0
 73
     0
 74
     1
 75
     0
 76
     0
 77
     1
 78
     1
170
     0
171
     4
172
     0
173
     0
174
     1
175
     0
176
     0
177
     0
178
     0
  0
ENDTAB
  0
ENDSEC
  0
SECTION
  2
BLOCKS
  0
BLOCK
  8
0
  2
$MODEL_SPACE
 70
     0
 10
0.0
 20
0.0
 30
0.0
  3
$MODEL_SPACE
  1

  0
ENDBLK
  5
21
  8
0
  0
BLOCK
 67
     1
  8
0
  2
$PAPER_SPACE
 70
     0
 10
0.0
 20
0.0
 30
0.0
  3
$PAPER_SPACE
  1

  0
ENDBLK
  5
14E
 67
     1
  8
0
  0
BLOCK
  8
0
  2
*D1
 70
     1
 10
0.0
 20
0.0
 30
0.0
  3
*D1
  1

  0
LINE
  5
67
  8
QUOTE
 62
     0
 10
44.10160908378793
 20
789.0973833596697
 30
0.0
 11
44.10160908378793
 21
804.0973833596697
 31
0.0
  0
LINE
  5
68
  8
QUOTE
 62
     0
 10
1544.101608980178
 20
789.0973833596697
 30
0.0
 11
1544.101608980178
 21
804.0973833596697
 31
0.0
  0
LINE
  5
69
  8
QUOTE
 62
     0
 10
69.10160908378793
 20
799.0973833596697
 30
0.0
 11
1519.101608980178
 21
799.0973833596697
 31
0.0
  0
SOLID
  5
6A
  8
QUOTE
 62
     0
 10
69.10160908378793
 20
803.2640500263363
 30
0.0
 11
69.10160908378793
 21
794.9307166930031
 31
0.0
 12
44.10160908378793
 22
799.0973833596697
 32
0.0
 13
44.10160908378793
 23
799.0973833596697
 33
0.0
  0
SOLID
  5
6B
  8
QUOTE
 62
     0
 10
1519.101608980178
 20
794.9307166930031
 30
0.0
 11
1519.101608980178
 21
803.2640500263363
 31
0.0
 12
1544.101608980178
 22
799.0973833596697
 32
0.0
 13
1544.101608980178
 23
799.0973833596697
 33
0.0
  0
TEXT
  5
6C
  8
QUOTE
 62
     0
 10
729.9891090319829
 20
804.5723833596697
 30
0.0
 40
25.0
  1
1500.00
  7
EDO
1001
ACADANNOTATIVE
1000
AnnotativeData
1002
{
1070
     1
1070
     0
1002
}
  0
POINT
  5
6D
  8
DEFPOINTS
 62
     0
 10
44.10160908378793
 20
748.5657143056517
 30
0.0
  0
POINT
  5
6E
  8
DEFPOINTS
 62
     0
 10
1544.101608980178
 20
748.5657143056517
 30
0.0
  0
POINT
  5
6F
  8
DEFPOINTS
 62
     0
 10
1544.101608980178
 20
799.0973833596697
 30
0.0
  0
ENDBLK
  5
66
  8
0
  0
BLOCK
  8
0
  2
*D2
 70
     1
 10
0.0
 20
0.0
 30
0.0
  3
*D2
  1

  0
LINE
  5
74
  8
QUOTE
 62
     0
 10
7.106237805698606
 20
748.5657143056517
 30
0.0
 11
-7.893762194301394
 21
748.5657143056517
 31
0.0
  0
LINE
  5
75
  8
QUOTE
 62
     0
 10
7.106237805698583
 20
-1.429999999999902
 30
0.0
 11
-7.893762194301417
 21
-1.429999999999901
 31
0.0
  0
LINE
  5
76
  8
QUOTE
 62
     0
 10
-2.893762194301395
 20
723.5657143056517
 30
0.0
 11
-2.893762194301416
 21
23.5700000000001
 31
0.0
  0
SOLID
  5
77
  8
QUOTE
 62
     0
 10
1.272904472365272
 20
723.5657143056517
 30
0.0
 11
-7.060428860968062
 21
723.5657143056517
 31
0.0
 12
-2.893762194301394
 22
748.5657143056517
 32
0.0
 13
-2.893762194301394
 23
748.5657143056517
 33
0.0
  0
SOLID
  5
78
  8
QUOTE
 62
     0
 10
-7.060428860968083
 20
23.5700000000001
 30
0.0
 11
1.272904472365251
 21
23.5700000000001
 31
0.0
 12
-2.893762194301417
 22
-1.429999999999901
 32
0.0
 13
-2.893762194301417
 23
-1.429999999999901
 33
0.0
  0
TEXT
  5
79
  8
QUOTE
 62
     0
 10
-8.368762194301382
 20
320.2303571528259
 30
0.0
 40
25.0
  1
750.00
 50
90.0
  7
EDO
1001
ACADANNOTATIVE
1000
AnnotativeData
1002
{
1070
     1
1070
     0
1002
}
  0
POINT
  5
7A
  8
DEFPOINTS
 62
     0
 10
794.1016090319831
 20
748.5657143056517
 30
0.0
  0
POINT
  5
7B
  8
DEFPOINTS
 62
     0
 10
792.4761341328776
 20
-1.42999999999995
 30
0.0
  0
POINT
  5
7C
  8
DEFPOINTS
 62
     0
 10
-2.893762194301417
 20
-1.429999999999901
 30
0.0
  0
ENDBLK
  5
73
  8
0
  0
BLOCK
  8
0
  2
*D3
 70
     1
 10
0.0
 20
0.0
 30
0.0
  3
*D3
  1

  0
LINE
  5
81
  8
QUOTE
 62
     0
 10
51.69485425366292
 20
2792.474478694752
 30
0.0
 11
51.69485425366292
 21
2807.474478694752
 31
0.0
  0
LINE
  5
82
  8
QUOTE
 62
     0
 10
1551.69485415017
 20
2792.474478694752
 30
0.0
 11
1551.69485415017
 21
2807.474478694752
 31
0.0
  0
LINE
  5
83
  8
QUOTE
 62
     0
 10
76.69485425366292
 20
2802.474478694752
 30
0.0
 11
1526.69485415017
 21
2802.474478694752
 31
0.0
  0
SOLID
  5
84
  8
QUOTE
 62
     0
 10
76.69485425366292
 20
2806.641145361419
 30
0.0
 11
76.69485425366292
 21
2798.307812028086
 31
0.0
 12
51.69485425366292
 22
2802.474478694752
 32
0.0
 13
51.69485425366292
 23
2802.474478694752
 33
0.0
  0
SOLID
  5
85
  8
QUOTE
 62
     0
 10
1526.69485415017
 20
2798.307812028086
 30
0.0
 11
1526.69485415017
 21
2806.641145361419
 31
0.0
 12
1551.69485415017
 22
2802.474478694752
 32
0.0
 13
1551.69485415017
 23
2802.474478694752
 33
0.0
  0
TEXT
  5
86
  8
QUOTE
 62
     0
 10
737.5823542019164
 20
2807.949478694752
 30
0.0
 40
25.0
  1
1500.00
  7
EDO
1001
ACADANNOTATIVE
1000
AnnotativeData
1002
{
1070
     1
1070
     0
1002
}
  0
POINT
  5
87
  8
DEFPOINTS
 62
     0
 10
51.69485425366292
 20
1951.52389005065
 30
0.0
  0
POINT
  5
88
  8
DEFPOINTS
 62
     0
 10
1551.69485415017
 20
1951.52389005065
 30
0.0
  0
POINT
  5
89
  8
DEFPOINTS
 62
     0
 10
1551.69485415017
 20
2802.474478694752
 30
0.0
  0
ENDBLK
  5
80
  8
0
  0
ENDSEC
  0
SECTION
  2
ENTITIES
  0
DIMENSION
  5
62
  8
QUOTE
  2
*D1
 10
1544.101608980178
 20
799.0973833596697
 30
0.0
 11
794.1016090319829
 21
816.8598833596698
 31
0.0
 70
    32
  1
<>
  3
EDO
 13
44.10160908378793
 23
748.5657143056517
 33
0.0
 14
1544.101608980178
 24
748.5657143056517
 34
0.0
1001
ACAD
1000
DSTYLE
1002
{
1070
   287
1070
     3
1070
     5
1000

1070
    74
1070
     0
1070
   173
1070
     0
1070
    40
1040
1.0
1070
   144
1040
1.0
1070
   179
1070
     2
1070
   171
1070
     4
1070
   143
1040
1.0
1070
    41
1040
25.0
1070
    79
1070
     1
1070
   141
1040
0.5
1070
   271
1070
     2
1070
    44
1040
5.0
1070
    42
1040
0.5
1070
   147
1040
5.0
1070
    77
1070
     1
1070
    73
1070
     0
1070
   174
1070
     0
1070
   279
1070
     0
1070
   340
1005
61
1070
   140
1040
25.0
1070
   284
1070
     1
1070
    78
1070
     1
1070
    49
1040
10.0
1070
   290
1070
     1
1002
}
  0
DIMENSION
  5
70
  8
QUOTE
  2
*D2
 10
-2.893762194301417
 20
-1.429999999999901
 30
0.0
 11
-20.65626219430139
 21
373.5678571528259
 31
0.0
 70
    32
  1
<>
  3
EDO
 13
794.1016090319831
 23
748.5657143056517
 33
0.0
 14
792.4761341328776
 24
-1.42999999999995
 34
0.0
 50
90.0
1001
ACAD
1000
DSTYLE
1002
{
1070
   287
1070
     3
1070
     5
1000

1070
    74
1070
     0
1070
   173
1070
     0
1070
    40
1040
1.0
1070
   144
1040
1.0
1070
   179
1070
     2
1070
   171
1070
     4
1070
   143
1040
1.0
1070
    41
1040
25.0
1070
    79
1070
     1
1070
   141
1040
0.5
1070
   271
1070
     2
1070
    44
1040
5.0
1070
    42
1040
0.5
1070
   147
1040
5.0
1070
    77
1070
     1
1070
    73
1070
     0
1070
   174
1070
     0
1070
   279
1070
     0
1070
   340
1005
61
1070
   140
1040
25.0
1070
   284
1070
     1
1070
    78
1070
     1
1070
    49
1040
10.0
1070
   290
1070
     1
1002
}
  0
DIMENSION
  5
7D
  8
QUOTE
  2
*D3
 10
1551.69485415017
 20
2802.474478694752
 30
0.0
 11
801.6948542019163
 21
2820.236978694752
 31
0.0
 70
    32
  1
<>
  3
EDO
 13
51.69485425366292
 23
1951.52389005065
 33
0.0
 14
1551.69485415017
 24
1951.52389005065
 34
0.0
1001
ACAD
1000
DSTYLE
1002
{
1070
   287
1070
     3
1070
     5
1000

1070
    74
1070
     0
1070
   173
1070
     0
1070
    40
1040
1.0
1070
   144
1040
1.0
1070
   179
1070
     2
1070
   171
1070
     4
1070
   143
1040
1.0
1070
    41
1040
25.0
1070
    79
1070
     1
1070
   141
1040
0.5
1070
   271
1070
     2
1070
    44
1040
5.0
1070
    42
1040
0.5
1070
   147
1040
5.0
1070
    77
1070
     1
1070
    73
1070
     0
1070
   174
1070
     0
1070
   279
1070
     0
1070
   340
1005
61
1070
   140
1040
25.0
1070
   284
1070
     1
1070
    78
1070
     1
1070
    49
1040
10.0
1070
   290
1070
     1
1002
}
  0
ARC
  5
8B
  8
MAKE2D$VISIBILE$CURVE
 62
     7
 10
-801.6948542019137
 20
1951.523890050624
 30
0.0
 40
749.9999999482508
 50
0.0000000000019976
 51
90.0000000000002
210
0.0
220
0.0
230
-1.0
  0
ARC
  5
8D
  8
MAKE2D$VISIBILE$CURVESILHO
 62
     7
 10
-801.6948542019137
 20
1951.523890050624
 30
0.0
 40
749.9999999482508
 50
0.0000000000019976
 51
90.0000000000002
210
0.0
220
0.0
230
-1.0
  0
ARC
  5
8E
  8
MAKE2D$VISIBILE$CURVE
 62
     7
 10
-801.694854201914
 20
1951.523890050677
 30
0.0
 40
749.9999999482513
 50
269.9999999999998
 51
359.9999999999979
210
0.0
220
0.0
230
-1.0
  0
ARC
  5
8F
  8
MAKE2D$VISIBILE$CURVESILHO
 62
     7
 10
-801.694854201914
 20
1951.523890050677
 30
0.0
 40
749.9999999482513
 50
269.9999999999998
 51
359.9999999999979
210
0.0
220
0.0
230
-1.0
  0
ARC
  5
90
  8
MAKE2D$VISIBILE$CURVE
 62
     7
 10
801.6948542019456
 20
1951.52389005065
 30
0.0
 40
749.9999999482243
 50
269.9999999999978
 51
90.00000000000225
  0
ARC
  5
91
  8
MAKE2D$VISIBILE$CURVESILHO
 62
     7
 10
801.6948542019456
 20
1951.52389005065
 30
0.0
 40
749.9999999482243
 50
269.9999999999978
 51
90.00000000000225
  0
ARC
  5
92
  8
MAKE2D$VISIBILE$CURVE
 62
     7
 10
-544.8828186137753
 20
707.000000000166
 30
0.0
 40
3.00000000424204
 50
148.4118645149665
 51
180.0000017227244
210
0.0
220
0.0
230
-1.0
  0
ARC
  5
93
  8
MAKE2D$VISIBILE$CURVE
 62
     7
 10
-1072.479362681855
 20
707.000000004116
 30
0.0
 40
3.000000001100706
 50
148.4118645666748
 51
180.000000030808
210
0.0
220
0.0
230
-1.0
  0
ARC
  5
94
  8
MAKE2D$VISIBILE$CURVE
 62
     7
 10
-544.9103435577405
 20
707.0000000001925
 30
0.0
 40
3.000000004271357
 50
148.4118645159047
 51
180.0000017232303
210
0.0
220
0.0
230
-1.0
  0
ARC
  5
95
  8
MAKE2D$VISIBILE$CURVE
 62
     7
 10
-1072.506887623261
 20
707.0000000002669
 30
0.0
 40
3.000000004145172
 50
148.4118645161305
 51
180.0000017246525
210
0.0
220
0.0
230
-1.0
  0
ARC
  5
96
  8
MAKE2D$VISIBILE$CURVESILHO
 62
     7
 10
-1072.506887623261
 20
707.0000000002669
 30
0.0
 40
3.000000004145172
 50
148.4118645161305
 51
180.0000017246525
210
0.0
220
0.0
230
-1.0
  0
ARC
  5
97
  8
MAKE2D$VISIBILE$CURVE
 62
     7
 10
530.88281865612
 20
706.9999999856889
 30
0.0
 40
3.000000001947674
 50
148.4091324358518
 51
179.9999996919375
  0
ARC
  5
98
  8
MAKE2D$VISIBILE$CURVESILHO
 62
     7
 10
530.88281865612
 20
706.9999999856889
 30
0.0
 40
3.000000001947674
 50
148.4091324358518
 51
179.9999996919375
  0
ARC
  5
99
  8
MAKE2D$VISIBILE$CURVE
 62
     7
 10
990.6751037112288
 20
707.0187920534723
 30
0.0
 40
3.713722715880786
 50
155.2842726901294
 51
180.2899270181422
  0
ARC
  5
9A
  8
MAKE2D$VISIBILE$CURVE
 62
     7
 10
-530.9103436029219
 20
707.000000000265
 30
0.0
 40
3.000000004170489
 50
359.9999982753844
 51
31.58813548365641
210
0.0
220
0.0
230
-1.0
  0
ARC
  5
9B
  8
MAKE2D$VISIBILE$CURVESILHO
 62
     7
 10
-530.9103436029219
 20
707.000000000265
 30
0.0
 40
3.000000004170489
 50
359.9999982753844
 51
31.58813548365641
210
0.0
220
0.0
230
-1.0
  0
ARC
  5
9C
  8
MAKE2D$VISIBILE$CURVE
 62
     7
 10
-604.9525000467762
 20
707.0186136068244
 30
0.0
 40
3.710757208018049
 50
359.7125966127342
 51
24.743496800377
210
0.0
220
0.0
230
-1.0
  0
LINE
  5
9D
  8
MAKE2D$VISIBILE$CURVESILHO
 62
     7
 10
527.8828186541723
 20
2.999999998210114
 30
0.0
 11
527.9103435986835
 21
2.999999997511622
 31
0.0
  0
LINE
  5
9E
  8
MAKE2D$VISIBILE$CURVESILHO
 62
     7
 10
527.9103435986253
 20
707.0000000025029
 30
0.0
 11
527.8828186541723
 21
707.000000001819
 31
0.0
  0
LINE
  5
9F
  8
MAKE2D$VISIBILE$CURVE
 62
     7
 10
794.1016090319831
 20
748.5657143056517
 30
0.0
 11
1544.101608980236
 21
748.5657143056517
 31
0.0
  0
LINE
  5
A0
  8
MAKE2D$VISIBILE$CURVE
 62
     7
 10
794.1016090319831
 20
748.5657143056517
 30
0.0
 11
44.10160908372973
 21
748.5657143056517
 31
0.0
  0
LINE
  5
A1
  8
MAKE2D$VISIBILE$CURVE
 62
     7
 10
44.10160908372973
 20
730.5669999020665
 30
0.0
 11
794.1016090319831
 21
730.5669999020665
 31
0.0
  0
LINE
  5
A2
  8
MAKE2D$VISIBILE$CURVE
 62
     7
 10
794.1016090319831
 20
730.5669999020665
 30
0.0
 11
1544.101608980236
 21
730.5669999020665
 31
0.0
  0
LINE
  5
A3
  8
MAKE2D$VISIBILE$CURVE
 62
     7
 10
44.10160908378793
 20
730.5669999020665
 30
0.0
 11
44.10160908378793
 21
748.5657143056517
 31
0.0
  0
LINE
  5
A4
  8
MAKE2D$VISIBILE$CURVE
 62
     7
 10
1544.101608980178
 20
748.5657143056517
 30
0.0
 11
1544.101608980178
 21
730.5669999020665
 31
0.0
  0
LINE
  5
A5
  8
MAKE2D$VISIBILE$CURVE
 62
     7
 10
1544.101608979945
 20
730.5669999020258
 30
0.0
 11
1340.530180422844
 21
708.5685714514461
 31
0.0
  0
LINE
  5
A6
  8
MAKE2D$VISIBILE$CURVE
 62
     7
 10
247.6730376411219
 20
708.5685714514733
 30
0.0
 11
44.10160908378793
 21
730.566999902053
 31
0.0
  0
LINE
  5
A7
  8
MAKE2D$VISIBILE$CURVE
 62
     7
 10
794.1016090319831
 20
708.5685714514598
 30
0.0
 11
1340.530180422844
 21
708.5685714514598
 31
0.0
  0
LINE
  5
A8
  8
MAKE2D$VISIBILE$CURVE
 62
     7
 10
247.6730376411801
 20
708.5685714514733
 30
0.0
 11
794.1016090319831
 21
708.5685714514598
 31
0.0
  0
LINE
  5
A9
  8
MAKE2D$VISIBILE$CURVE
 62
     7
 10
527.8828186541723
 20
2.999999998210114
 30
0.0
 11
527.8951095439188
 21
2.999999997889972
 31
0.0
  0
LINE
  5
AA
  8
MAKE2D$VISIBILE$CURVE
 62
     7
 10
527.8951095439188
 20
2.999999997889972
 30
0.0
 11
527.9103435986835
 21
2.999999997511622
 31
0.0
  0
LINE
  5
AB
  8
MAKE2D$VISIBILE$CURVE
 62
     7
 10
527.9103435986253
 20
707.0000000025029
 30
0.0
 11
527.8951095439188
 21
707.0000000021246
 31
0.0
  0
LINE
  5
AC
  8
MAKE2D$VISIBILE$CURVE
 62
     7
 10
527.8951095439188
 20
707.0000000021246
 30
0.0
 11
527.8828186541723
 21
707.000000001819
 31
0.0
  0
LINE
  5
AD
  8
MAKE2D$VISIBILE$CURVE
 62
     7
 10
547.9103435620127
 20
2.999999997511622
 30
0.0
 11
547.8951095817538
 21
2.999999997904524
 31
0.0
  0
LINE
  5
AE
  8
MAKE2D$VISIBILE$CURVE
 62
     7
 10
547.8951095817538
 20
2.999999997904524
 30
0.0
 11
547.8828186179089
 21
2.999999998224666
 31
0.0
  0
LINE
  5
AF
  8
MAKE2D$VISIBILE$CURVE
 62
     7
 10
547.8828186179089
 20
707.0000000018335
 30
0.0
 11
547.8951095817538
 21
707.0000000021246
 31
0.0
  0
LINE
  5
B0
  8
MAKE2D$VISIBILE$CURVE
 62
     7
 10
547.8951095817538
 20
707.0000000021246
 30
0.0
 11
547.9103435620127
 21
707.0000000024884
 31
0.0
  0
ARC
  5
B1
  8
MAKE2D$VISIBILE$CURVESILHO
 62
     7
 10
-1072.47936268991
 20
1.569999993053784
 30
0.0
 40
2.999999993046231
 50
179.9999999145836
 51
269.4743276290378
210
0.0
220
0.0
230
-1.0
  0
ARC
  5
B2
  8
MAKE2D$VISIBILE$CURVE
 62
     7
 10
-1072.47936268991
 20
1.569999993053784
 30
0.0
 40
2.999999993046231
 50
179.9999999145836
 51
269.4743276290378
210
0.0
220
0.0
230
-1.0
  0
LINE
  5
B3
  8
MAKE2D$VISIBILE$CURVE
 62
     7
 10
986.9614287078075
 20
1.569999975698302
 30
0.0
 11
986.963377271828
 21
1.448567291927013
 31
0.0
  0
LINE
  5
B4
  8
MAKE2D$VISIBILE$CURVE
 62
     7
 10
986.963377271828
 20
1.448567291927013
 30
0.0
 11
986.9690300178122
 21
1.327256069999183
 31
0.0
  0
LINE
  5
B5
  8
MAKE2D$VISIBILE$CURVE
 62
     7
 10
986.9690300178122
 20
1.327256069999183
 30
0.0
 11
986.9784022956557
 21
1.206299473771455
 31
0.0
  0
LINE
  5
B6
  8
MAKE2D$VISIBILE$CURVE
 62
     7
 10
986.9784022956557
 20
1.206299473771455
 30
0.0
 11
986.9915094552543
 21
1.08593066710047
 31
0.0
  0
LINE
  5
B7
  8
MAKE2D$VISIBILE$CURVE
 62
     7
 10
986.9915094552543
 20
1.08593066710047
 30
0.0
 11
987.0093882808384
 21
0.959847581406549
 31
0.0
  0
LINE
  5
B8
  8
MAKE2D$VISIBILE$CURVE
 62
     7
 10
987.0093882808384
 20
0.959847581406549
 30
0.0
 11
987.031388657784
 21
0.8348959184306035
 31
0.0
  0
LINE
  5
B9
  8
MAKE2D$VISIBILE$CURVE
 62
     7
 10
987.031388657784
 20
0.8348959184306035
 30
0.0
 11
987.0574594139631
 21
0.7112936608925665
 31
0.0
  0
LINE
  5
BA
  8
MAKE2D$VISIBILE$CURVE
 62
     7
 10
987.0574594139631
 20
0.7112936608925665
 30
0.0
 11
987.087549377248
 21
0.5892587915123711
 31
0.0
  0
LINE
  5
BB
  8
MAKE2D$VISIBILE$CURVE
 62
     7
 10
987.087549377248
 20
0.5892587915123711
 30
0.0
 11
987.1047798192159
 21
0.5264476072317668
 31
0.0
  0
LINE
  5
BC
  8
MAKE2D$VISIBILE$CURVE
 62
     7
 10
987.1047798192159
 20
0.5264476072317668
 30
0.0
 11
987.1230747186689
 21
0.4641504615665304
 31
0.0
  0
LINE
  5
BD
  8
MAKE2D$VISIBILE$CURVE
 62
     7
 10
987.1230747186689
 20
0.4641504615665304
 30
0.0
 11
987.1424240371954
 21
0.4023979362840996
 31
0.0
  0
LINE
  5
BE
  8
MAKE2D$VISIBILE$CURVE
 62
     7
 10
987.1424240371954
 20
0.4023979362840996
 30
0.0
 11
987.1628177363832
 21
0.3412206131519118
 31
0.0
  0
LINE
  5
BF
  8
MAKE2D$VISIBILE$CURVE
 62
     7
 10
987.1628177363832
 20
0.3412206131519118
 30
0.0
 11
987.1842457778205
 21
0.2806490739374047
 31
0.0
  0
LINE
  5
C0
  8
MAKE2D$VISIBILE$CURVE
 62
     7
 10
987.1842457778205
 20
0.2806490739374047
 30
0.0
 11
987.2066981230955
 21
0.2207139004080156
 31
0.0
  0
LINE
  5
C1
  8
MAKE2D$VISIBILE$CURVE
 62
     7
 10
987.2066981230955
 20
0.2207139004080156
 30
0.0
 11
987.2301647337963
 21
0.1614456743311822
 31
0.0
  0
LINE
  5
C2
  8
MAKE2D$VISIBILE$CURVE
 62
     7
 10
987.2301647337963
 20
0.1614456743311822
 30
0.0
 11
987.2546355715109
 21
0.1028749774743419
 31
0.0
  0
LINE
  5
C3
  8
MAKE2D$VISIBILE$CURVE
 62
     7
 10
987.2546355715109
 20
0.1028749774743419
 30
0.0
 11
987.2807505752269
 21
0.0435920438197256
 31
0.0
  0
LINE
  5
C4
  8
MAKE2D$VISIBILE$CURVE
 62
     7
 10
987.2807505752269
 20
0.0435920438197256
 30
0.0
 11
987.3078947181419
 21
-0.014896503612879
 31
0.0
  0
LINE
  5
C5
  8
MAKE2D$VISIBILE$CURVE
 62
     7
 10
987.3078947181419
 20
-0.014896503612879
 30
0.0
 11
987.336052503867
 21
-0.0725613353001826
 31
0.0
  0
LINE
  5
C6
  8
MAKE2D$VISIBILE$CURVE
 62
     7
 10
987.336052503867
 20
-0.0725613353001826
 30
0.0
 11
987.3652084360128
 21
-0.1293731217188961
 31
0.0
  0
LINE
  5
C7
  8
MAKE2D$VISIBILE$CURVE
 62
     7
 10
987.3652084360128
 20
-0.1293731217188961
 30
0.0
 11
987.3953470181903
 21
-0.1853025333457302
 31
0.0
  0
LINE
  5
C8
  8
MAKE2D$VISIBILE$CURVE
 62
     7
 10
987.3953470181903
 20
-0.1853025333457302
 30
0.0
 11
987.4264527540099
 21
-0.2403202406573959
 31
0.0
  0
LINE
  5
C9
  8
MAKE2D$VISIBILE$CURVE
 62
     7
 10
987.4264527540099
 20
-0.2403202406573959
 30
0.0
 11
987.4585101470827
 21
-0.2943969141306038
 31
0.0
  0
LINE
  5
CA
  8
MAKE2D$VISIBILE$CURVE
 62
     7
 10
987.4585101470827
 20
-0.2943969141306038
 30
0.0
 11
987.4915037010196
 21
-0.3475032242420648
 31
0.0
  0
LINE
  5
CB
  8
MAKE2D$VISIBILE$CURVE
 62
     7
 10
987.4915037010196
 20
-0.3475032242420648
 30
0.0
 11
987.5257069242905
 21
-0.4000453011064303
 31
0.0
  0
LINE
  5
CC
  8
MAKE2D$VISIBILE$CURVE
 62
     7
 10
987.5257069242905
 20
-0.4000453011064303
 30
0.0
 11
987.5608266089544
 21
-0.4515449011489621
 31
0.0
  0
LINE
  5
CD
  8
MAKE2D$VISIBILE$CURVE
 62
     7
 10
987.5608266089544
 20
-0.4515449011489621
 30
0.0
 11
987.5968429701663
 21
-0.5019761597103152
 31
0.0
  0
LINE
  5
CE
  8
MAKE2D$VISIBILE$CURVE
 62
     7
 10
987.5968429701663
 20
-0.5019761597103152
 30
0.0
 11
987.633736223082
 21
-0.5513132121311447
 31
0.0
  0
LINE
  5
CF
  8
MAKE2D$VISIBILE$CURVE
 62
     7
 10
987.633736223082
 20
-0.5513132121311447
 30
0.0
 11
987.6714865828562
 21
-0.5995301937521063
 31
0.0
  0
LINE
  5
D0
  8
MAKE2D$VISIBILE$CURVE
 62
     7
 10
987.6714865828562
 20
-0.5995301937521063
 30
0.0
 11
987.7100742646446
 21
-0.646601239913855
 31
0.0
  0
LINE
  5
D1
  8
MAKE2D$VISIBILE$CURVE
 62
     7
 10
987.7100742646446
 20
-0.646601239913855
 30
0.0
 11
987.749479483602
 21
-0.6925004859570462
 31
0.0
  0
LINE
  5
D2
  8
MAKE2D$VISIBILE$CURVE
 62
     7
 10
987.749479483602
 20
-0.6925004859570462
 30
0.0
 11
987.7896824548836
 21
-0.7372020672223351
 31
0.0
  0
LINE
  5
D3
  8
MAKE2D$VISIBILE$CURVE
 62
     7
 10
987.7896824548836
 20
-0.7372020672223351
 30
0.0
 11
987.830317855515
 21
-0.7803233963933682
 31
0.0
  0
LINE
  5
D4
  8
MAKE2D$VISIBILE$CURVE
 62
     7
 10
987.830317855515
 20
-0.7803233963933682
 30
0.0
 11
987.871695864205
 21
-0.8222212643068583
 31
0.0
  0
LINE
  5
D5
  8
MAKE2D$VISIBILE$CURVE
 62
     7
 10
987.871695864205
 20
-0.8222212643068583
 30
0.0
 11
987.913794046565
 21
-0.8628754116133043
 31
0.0
  0
LINE
  5
D6
  8
MAKE2D$VISIBILE$CURVE
 62
     7
 10
987.913794046565
 20
-0.8628754116133043
 30
0.0
 11
987.9565899682058
 21
-0.9022655789632057
 31
0.0
  0
LINE
  5
D7
  8
MAKE2D$VISIBILE$CURVE
 62
     7
 10
987.9565899682058
 20
-0.9022655789632057
 30
0.0
 11
988.0000611947381
 21
-0.9403715070070617
 31
0.0
  0
LINE
  5
D8
  8
MAKE2D$VISIBILE$CURVE
 62
     7
 10
988.0000611947381
 20
-0.9403715070070617
 30
0.0
 11
988.0441852917731
 21
-0.9771729363953716
 31
0.0
  0
LINE
  5
D9
  8
MAKE2D$VISIBILE$CURVE
 62
     7
 10
988.0441852917731
 20
-0.9771729363953716
 30
0.0
 11
988.0889398249217
 21
-1.012649607778635
 31
0.0
  0
LINE
  5
DA
  8
MAKE2D$VISIBILE$CURVE
 62
     7
 10
988.0889398249217
 20
-1.012649607778635
 30
0.0
 11
988.1343023597949
 21
-1.04678126180735
 31
0.0
  0
LINE
  5
DB
  8
MAKE2D$VISIBILE$CURVE
 62
     7
 10
988.1343023597949
 20
-1.04678126180735
 30
0.0
 11
988.1791206225248
 21
-1.078764465778166
 31
0.0
  0
LINE
  5
DC
  8
MAKE2D$VISIBILE$CURVE
 62
     7
 10
988.1791206225248
 20
-1.078764465778166
 30
0.0
 11
988.2244727957402
 21
-1.109435175287565
 31
0.0
  0
LINE
  5
DD
  8
MAKE2D$VISIBILE$CURVE
 62
     7
 10
988.2244727957402
 20
-1.109435175287565
 30
0.0
 11
988.2703354863577
 21
-1.138780274328311
 31
0.0
  0
LINE
  5
DE
  8
MAKE2D$VISIBILE$CURVE
 62
     7
 10
988.2703354863577
 20
-1.138780274328311
 30
0.0
 11
988.3166853012939
 21
-1.166786646893168
 31
0.0
  0
LINE
  5
DF
  8
MAKE2D$VISIBILE$CURVE
 62
     7
 10
988.3166853012939
 20
-1.166786646893168
 30
0.0
 11
988.363498847466
 21
-1.193441176974901
 31
0.0
  0
LINE
  5
E0
  8
MAKE2D$VISIBILE$CURVE
 62
     7
 10
988.363498847466
 20
-1.193441176974901
 30
0.0
 11
988.4107527317906
 21
-1.218730748566274
 31
0.0
  0
LINE
  5
E1
  8
MAKE2D$VISIBILE$CURVE
 62
     7
 10
988.4107527317906
 20
-1.218730748566274
 30
0.0
 11
988.4584235611846
 21
-1.242642245660051
 31
0.0
  0
LINE
  5
E2
  8
MAKE2D$VISIBILE$CURVE
 62
     7
 10
988.4584235611846
 20
-1.242642245660051
 30
0.0
 11
988.506487942565
 21
-1.265162552248996
 31
0.0
  0
LINE
  5
E3
  8
MAKE2D$VISIBILE$CURVE
 62
     7
 10
988.506487942565
 20
-1.265162552248996
 30
0.0
 11
988.5530199817032
 21
-1.285479146452292
 31
0.0
  0
LINE
  5
E4
  8
MAKE2D$VISIBILE$CURVE
 62
     7
 10
988.5530199817032
 20
-1.285479146452292
 30
0.0
 11
988.5998729251357
 21
-1.304490835127344
 31
0.0
  0
LINE
  5
E5
  8
MAKE2D$VISIBILE$CURVE
 62
     7
 10
988.5998729251357
 20
-1.304490835127344
 30
0.0
 11
988.6470259284742
 21
-1.322189236741215
 31
0.0
  0
LINE
  5
E6
  8
MAKE2D$VISIBILE$CURVE
 62
     7
 10
988.6470259284742
 20
-1.322189236741215
 30
0.0
 11
988.6944581473307
 21
-1.33856596976097
 31
0.0
  0
LINE
  5
E7
  8
MAKE2D$VISIBILE$CURVE
 62
     7
 10
988.6944581473307
 20
-1.33856596976097
 30
0.0
 11
988.742148737317
 21
-1.35361265265367
 31
0.0
  0
LINE
  5
E8
  8
MAKE2D$VISIBILE$CURVE
 62
     7
 10
988.742148737317
 20
-1.35361265265367
 30
0.0
 11
988.7900768540454
 21
-1.36732090388638
 31
0.0
  0
LINE
  5
E9
  8
MAKE2D$VISIBILE$CURVE
 62
     7
 10
988.7900768540454
 20
-1.36732090388638
 30
0.0
 11
988.8382216531277
 21
-1.379682341926163
 31
0.0
  0
LINE
  5
EA
  8
MAKE2D$VISIBILE$CURVE
 62
     7
 10
988.8382216531277
 20
-1.379682341926163
 30
0.0
 11
988.8865622901756
 21
-1.390688585240082
 31
0.0
  0
LINE
  5
EB
  8
MAKE2D$VISIBILE$CURVE
 62
     7
 10
988.8865622901756
 20
-1.390688585240082
 30
0.0
 11
988.9325517487266
 21
-1.399865442545877
 31
0.0
  0
LINE
  5
EC
  8
MAKE2D$VISIBILE$CURVE
 62
     7
 10
988.9325517487266
 20
-1.399865442545877
 30
0.0
 11
988.9786761811765
 21
-1.407819289986706
 31
0.0
  0
LINE
  5
ED
  8
MAKE2D$VISIBILE$CURVE
 62
     7
 10
988.9786761811765
 20
-1.407819289986706
 30
0.0
 11
989.02491328459
 21
-1.414552642429222
 31
0.0
  0
LINE
  5
EE
  8
MAKE2D$VISIBILE$CURVE
 62
     7
 10
989.02491328459
 20
-1.414552642429222
 30
0.0
 11
989.0712407560313
 21
-1.42006801474008
 31
0.0
  0
LINE
  5
EF
  8
MAKE2D$VISIBILE$CURVE
 62
     7
 10
989.0712407560313
 20
-1.42006801474008
 30
0.0
 11
989.1176362925653
 21
-1.424367921785934
 31
0.0
  0
LINE
  5
F0
  8
MAKE2D$VISIBILE$CURVE
 62
     7
 10
989.1176362925653
 20
-1.424367921785934
 30
0.0
 11
989.1640775912564
 21
-1.427454878433435
 31
0.0
  0
LINE
  5
F1
  8
MAKE2D$VISIBILE$CURVE
 62
     7
 10
989.1640775912564
 20
-1.427454878433435
 30
0.0
 11
989.2105423491691
 21
-1.429331399549239
 31
0.0
  0
LINE
  5
F2
  8
MAKE2D$VISIBILE$CURVE
 62
     7
 10
989.2105423491691
 20
-1.429331399549239
 30
0.0
 11
989.2570082633683
 21
-1.43
 31
0.0
  0
LINE
  5
F3
  8
MAKE2D$VISIBILE$CURVESILHO
 62
     7
 10
792.4761341328776
 20
-1.43
 30
0.0
 11
989.2570082633683
 21
-1.43
 31
0.0
  0
LINE
  5
F4
  8
MAKE2D$VISIBILE$CURVE
 62
     7
 10
792.4761341328776
 20
-1.43
 30
0.0
 11
989.2570082633683
 21
-1.43
 31
0.0
  0
ARC
  5
F5
  8
MAKE2D$VISIBILE$CURVESILHO
 62
     7
 10
530.8828186754562
 20
1.570000021312994
 30
0.0
 40
3.000000021283881
 50
180.0000004412325
 51
270.0000000593035
  0
ARC
  5
F6
  8
MAKE2D$VISIBILE$CURVE
 62
     7
 10
530.8828186754562
 20
1.570000021312994
 30
0.0
 40
3.000000021283881
 50
180.0000004412325
 51
270.0000000593035
  0
LINE
  5
F7
  8
MAKE2D$VISIBILE$CURVE
 62
     7
 10
603.5395576399096
 20
-1.43
 30
0.0
 11
603.493058826427
 21
-1.429331396060308
 31
0.0
  0
LINE
  5
F8
  8
MAKE2D$VISIBILE$CURVE
 62
     7
 10
603.493058826427
 20
-1.429331396060308
 30
0.0
 11
603.4465607326292
 21
-1.427454872472651
 31
0.0
  0
LINE
  5
F9
  8
MAKE2D$VISIBILE$CURVE
 62
     7
 10
603.4465607326292
 20
-1.427454872472651
 30
0.0
 11
603.4000856723449
 21
-1.424367914379289
 31
0.0
  0
LINE
  5
FA
  8
MAKE2D$VISIBILE$CURVE
 62
     7
 10
603.4000856723449
 20
-1.424367914379289
 30
0.0
 11
603.3536559594029
 21
-1.420068006922481
 31
0.0
  0
LINE
  5
FB
  8
MAKE2D$VISIBILE$CURVE
 62
     7
 10
603.3536559594029
 20
-1.420068006922481
 30
0.0
 11
603.3072939076319
 21
-1.414552635244486
 31
0.0
  0
LINE
  5
FC
  8
MAKE2D$VISIBILE$CURVE
 62
     7
 10
603.3072939076319
 20
-1.414552635244486
 30
0.0
 11
603.2610218308608
 21
-1.407819284487563
 31
0.0
  0
LINE
  5
FD
  8
MAKE2D$VISIBILE$CURVE
 62
     7
 10
603.2610218308608
 20
-1.407819284487563
 30
0.0
 11
603.2148620429185
 21
-1.399865439793971
 31
0.0
  0
LINE
  5
FE
  8
MAKE2D$VISIBILE$CURVE
 62
     7
 10
603.2148620429185
 20
-1.399865439793971
 30
0.0
 11
603.1688368576338
 21
-1.390688586305969
 31
0.0
  0
LINE
  5
FF
  8
MAKE2D$VISIBILE$CURVE
 62
     7
 10
603.1688368576338
 20
-1.390688586305969
 30
0.0
 11
603.1204581265406
 21
-1.379682343081741
 31
0.0
  0
LINE
  5
100
  8
MAKE2D$VISIBILE$CURVE
 62
     7
 10
603.1204581265406
 20
-1.379682343081741
 30
0.0
 11
603.0722748612708
 21
-1.367320905124541
 31
0.0
  0
LINE
  5
101
  8
MAKE2D$VISIBILE$CURVE
 62
     7
 10
603.0722748612708
 20
-1.367320905124541
 30
0.0
 11
603.024307934858
 21
-1.353612653949604
 31
0.0
  0
LINE
  5
102
  8
MAKE2D$VISIBILE$CURVE
 62
     7
 10
603.024307934858
 20
-1.353612653949604
 30
0.0
 11
602.9765782203355
 21
-1.338565971072162
 31
0.0
  0
LINE
  5
103
  8
MAKE2D$VISIBILE$CURVE
 62
     7
 10
602.9765782203355
 20
-1.338565971072162
 30
0.0
 11
602.9291065907369
 21
-1.322189238007449
 31
0.0
  0
LINE
  5
104
  8
MAKE2D$VISIBILE$CURVE
 62
     7
 10
602.9291065907369
 20
-1.322189238007449
 30
0.0
 11
602.8819139190955
 21
-1.304490836270699
 31
0.0
  0
LINE
  5
105
  8
MAKE2D$VISIBILE$CURVE
 62
     7
 10
602.8819139190955
 20
-1.304490836270699
 30
0.0
 11
602.8350210784448
 21
-1.285479147377145
 31
0.0
  0
LINE
  5
106
  8
MAKE2D$VISIBILE$CURVE
 62
     7
 10
602.8350210784448
 20
-1.285479147377145
 30
0.0
 11
602.7884489418184
 21
-1.26516255284202
 31
0.0
  0
LINE
  5
107
  8
MAKE2D$VISIBILE$CURVE
 62
     7
 10
602.7884489418184
 20
-1.26516255284202
 30
0.0
 11
602.7403426598747
 21
-1.242642251476012
 31
0.0
  0
LINE
  5
108
  8
MAKE2D$VISIBILE$CURVE
 62
     7
 10
602.7403426598747
 20
-1.242642251476012
 30
0.0
 11
602.69262977728
 21
-1.218730759516133
 31
0.0
  0
LINE
  5
109
  8
MAKE2D$VISIBILE$CURVE
 62
     7
 10
602.69262977728
 20
-1.218730759516133
 30
0.0
 11
602.645333720557
 21
-1.193441192319559
 31
0.0
  0
LINE
  5
10A
  8
MAKE2D$VISIBILE$CURVE
 62
     7
 10
602.645333720557
 20
-1.193441192319559
 30
0.0
 11
602.5984779162292
 21
-1.166786665243465
 31
0.0
  0
LINE
  5
10B
  8
MAKE2D$VISIBILE$CURVE
 62
     7
 10
602.5984779162292
 20
-1.166786665243465
 30
0.0
 11
602.5520857908192
 21
-1.138780293645027
 31
0.0
  0
LINE
  5
10C
  8
MAKE2D$VISIBILE$CURVE
 62
     7
 10
602.5520857908192
 20
-1.138780293645027
 30
0.0
 11
602.5061807708503
 21
-1.109435192881419
 31
0.0
  0
LINE
  5
10D
  8
MAKE2D$VISIBILE$CURVE
 62
     7
 10
602.5061807708503
 20
-1.109435192881419
 30
0.0
 11
602.4607862828453
 21
-1.078764478309818
 31
0.0
  0
LINE
  5
10E
  8
MAKE2D$VISIBILE$CURVE
 62
     7
 10
602.4607862828453
 20
-1.078764478309818
 30
0.0
 11
602.4159257533277
 21
-1.046781265287398
 31
0.0
  0
LINE
  5
10F
  8
MAKE2D$VISIBILE$CURVE
 62
     7
 10
602.4159257533277
 20
-1.046781265287398
 30
0.0
 11
602.3705200229505
 21
-1.012649631156108
 31
0.0
  0
LINE
  5
110
  8
MAKE2D$VISIBILE$CURVE
 62
     7
 10
602.3705200229505
 20
-1.012649631156108
 30
0.0
 11
602.3257224199722
 21
-0.9771729764313224
 31
0.0
  0
LINE
  5
111
  8
MAKE2D$VISIBILE$CURVE
 62
     7
 10
602.3257224199722
 20
-0.9771729764313224
 30
0.0
 11
602.2815554200297
 21
-0.9403715594278099
 31
0.0
  0
LINE
  5
112
  8
MAKE2D$VISIBILE$CURVE
 62
     7
 10
602.2815554200297
 20
-0.9403715594278099
 30
0.0
 11
602.2380414987599
 21
-0.9022656384603387
 31
0.0
  0
LINE
  5
113
  8
MAKE2D$VISIBILE$CURVE
 62
     7
 10
602.2380414987599
 20
-0.9022656384603387
 30
0.0
 11
602.1952031317998
 21
-0.8628754718436767
 31
0.0
  0
LINE
  5
114
  8
MAKE2D$VISIBILE$CURVE
 62
     7
 10
602.1952031317998
 20
-0.8628754718436767
 30
0.0
 11
602.1530627947861
 21
-0.8222213178925923
 31
0.0
  0
LINE
  5
115
  8
MAKE2D$VISIBILE$CURVE
 62
     7
 10
602.1530627947861
 20
-0.8222213178925923
 30
0.0
 11
602.1116429633561
 21
-0.7803234349218536
 31
0.0
  0
LINE
  5
116
  8
MAKE2D$VISIBILE$CURVE
 62
     7
 10
602.1116429633561
 20
-0.7803234349218536
 30
0.0
 11
602.0709661131466
 21
-0.7372020812462284
 31
0.0
  0
LINE
  5
117
  8
MAKE2D$VISIBILE$CURVE
 62
     7
 10
602.0709661131466
 20
-0.7372020812462284
 30
0.0
 11
602.0307218268404
 21
-0.6925005369109536
 31
0.0
  0
LINE
  5
118
  8
MAKE2D$VISIBILE$CURVE
 62
     7
 10
602.0307218268404
 20
-0.6925005369109536
 30
0.0
 11
601.9912757534809
 21
-0.6466013199821707
 31
0.0
  0
LINE
  5
119
  8
MAKE2D$VISIBILE$CURVE
 62
     7
 10
601.9912757534809
 20
-0.6466013199821707
 30
0.0
 11
601.9526477196065
 21
-0.5995302940609806
 31
0.0
  0
LINE
  5
11A
  8
MAKE2D$VISIBILE$CURVE
 62
     7
 10
601.9526477196065
 20
-0.5995302940609806
 30
0.0
 11
601.9148575517557
 21
-0.5513133227484841
 31
0.0
  0
LINE
  5
11B
  8
MAKE2D$VISIBILE$CURVE
 62
     7
 10
601.9148575517557
 20
-0.5513133227484841
 30
0.0
 11
601.8779250764671
 21
-0.5019762696457819
 31
0.0
  0
LINE
  5
11C
  8
MAKE2D$VISIBILE$CURVE
 62
     7
 10
601.8779250764671
 20
-0.5019762696457819
 30
0.0
 11
601.8418701202795
 21
-0.4515449983539748
 31
0.0
  0
LINE
  5
11D
  8
MAKE2D$VISIBILE$CURVE
 62
     7
 10
601.8418701202795
 20
-0.4515449983539748
 30
0.0
 11
601.8067125097309
 21
-0.4000453724741634
 31
0.0
  0
LINE
  5
11E
  8
MAKE2D$VISIBILE$CURVE
 62
     7
 10
601.8067125097309
 20
-0.4000453724741634
 30
0.0
 11
601.7724720713602
 21
-0.3475032556074487
 31
0.0
  0
LINE
  5
11F
  8
MAKE2D$VISIBILE$CURVE
 62
     7
 10
601.7724720713602
 20
-0.3475032556074487
 30
0.0
 11
601.7394424181338
 21
-0.2943969931379973
 31
0.0
  0
LINE
  5
120
  8
MAKE2D$VISIBILE$CURVE
 62
     7
 10
601.7394424181338
 20
-0.2943969931379973
 30
0.0
 11
601.7073497012791
 21
-0.2403203555273409
 31
0.0
  0
LINE
  5
121
  8
MAKE2D$VISIBILE$CURVE
 62
     7
 10
601.7073497012791
 20
-0.2403203555273409
 30
0.0
 11
601.6762094562533
 21
-0.1853026716750483
 31
0.0
  0
LINE
  5
122
  8
MAKE2D$VISIBILE$CURVE
 62
     7
 10
601.6762094562533
 20
-0.1853026716750483
 30
0.0
 11
601.6460372185136
 21
-0.1293732704806885
 31
0.0
  0
LINE
  5
123
  8
MAKE2D$VISIBILE$CURVE
 62
     7
 10
601.6460372185136
 20
-0.1293732704806885
 30
0.0
 11
601.6168485235171
 21
-0.0725614808438305
 31
0.0
  0
LINE
  5
124
  8
MAKE2D$VISIBILE$CURVE
 62
     7
 10
601.6168485235171
 20
-0.0725614808438305
 30
0.0
 11
601.5886589067213
 21
-0.0148966316640433
 31
0.0
  0
LINE
  5
125
  8
MAKE2D$VISIBILE$CURVE
 62
     7
 10
601.5886589067213
 20
-0.0148966316640433
 30
0.0
 11
601.5614839035834
 21
0.0435919481591042
 31
0.0
  0
LINE
  5
126
  8
MAKE2D$VISIBILE$CURVE
 62
     7
 10
601.5614839035834
 20
0.0435919481591042
 30
0.0
 11
601.5353390495604
 21
0.1028749297260429
 31
0.0
  0
LINE
  5
127
  8
MAKE2D$VISIBILE$CURVE
 62
     7
 10
601.5353390495604
 20
0.1028749297260429
 30
0.0
 11
601.5108401428918
 21
0.1614455818201004
 31
0.0
  0
LINE
  5
128
  8
MAKE2D$VISIBILE$CURVE
 62
     7
 10
601.5108401428918
 20
0.1614455818201004
 30
0.0
 11
601.4873464797778
 21
0.2207137758281346
 31
0.0
  0
LINE
  5
129
  8
MAKE2D$VISIBILE$CURVE
 62
     7
 10
601.4873464797778
 20
0.2207137758281346
 30
0.0
 11
601.4648681204558
 21
0.2806489299534835
 31
0.0
  0
LINE
  5
12A
  8
MAKE2D$VISIBILE$CURVE
 62
     7
 10
601.4648681204558
 20
0.2806489299534835
 30
0.0
 11
601.4434151251633
 21
0.3412204623994851
 31
0.0
  0
LINE
  5
12B
  8
MAKE2D$VISIBILE$CURVE
 62
     7
 10
601.4434151251633
 20
0.3412204623994851
 30
0.0
 11
601.4229975541377
 21
0.4023977913694778
 31
0.0
  0
LINE
  5
12C
  8
MAKE2D$VISIBILE$CURVE
 62
     7
 10
601.4229975541377
 20
0.4023977913694778
 30
0.0
 11
601.403625467617
 21
0.4641503350667997
 31
0.0
  0
LINE
  5
12D
  8
MAKE2D$VISIBILE$CURVE
 62
     7
 10
601.403625467617
 20
0.4641503350667997
 30
0.0
 11
601.3853089258381
 21
0.5264475116947889
 31
0.0
  0
LINE
  5
12E
  8
MAKE2D$VISIBILE$CURVE
 62
     7
 10
601.3853089258381
 20
0.5264475116947889
 30
0.0
 11
601.3680579890388
 21
0.5892587394567833
 31
0.0
  0
LINE
  5
12F
  8
MAKE2D$VISIBILE$CURVE
 62
     7
 10
601.3680579890388
 20
0.5892587394567833
 30
0.0
 11
601.3379320030175
 21
0.7112935604251738
 31
0.0
  0
LINE
  5
130
  8
MAKE2D$VISIBILE$CURVE
 62
     7
 10
601.3379320030175
 20
0.7112935604251738
 30
0.0
 11
601.3118298220355
 21
0.8348958070071909
 31
0.0
  0
LINE
  5
131
  8
MAKE2D$VISIBILE$CURVE
 62
     7
 10
601.3118298220355
 20
0.8348958070071909
 30
0.0
 11
601.2898029086916
 21
0.9598474926484484
 31
0.0
  0
LINE
  5
132
  8
MAKE2D$VISIBILE$CURVE
 62
     7
 10
601.2898029086916
 20
0.9598474926484484
 30
0.0
 11
601.2719027255846
 21
1.08593063079456
 31
0.0
  0
LINE
  5
133
  8
MAKE2D$VISIBILE$CURVE
 62
     7
 10
601.2719027255846
 20
1.08593063079456
 30
0.0
 11
601.2587803153237
 21
1.206299428934632
 31
0.0
  0
LINE
  5
134
  8
MAKE2D$VISIBILE$CURVE
 62
     7
 10
601.2587803153237
 20
1.206299428934632
 30
0.0
 11
601.2493976057618
 21
1.327256032561185
 31
0.0
  0
LINE
  5
135
  8
MAKE2D$VISIBILE$CURVE
 62
     7
 10
601.2493976057618
 20
1.327256032561185
 30
0.0
 11
601.2437391554605
 21
1.448567271533999
 31
0.0
  0
LINE
  5
136
  8
MAKE2D$VISIBILE$CURVE
 62
     7
 10
601.2437391554605
 20
1.448567271533999
 30
0.0
 11
601.2417895229809
 21
1.569999975712853
 31
0.0
  0
LINE
  5
137
  8
MAKE2D$VISIBILE$CURVESILHO
 62
     7
 10
603.5395576399096
 20
-1.43
 30
0.0
 11
792.4761341328776
 21
-1.43
 31
0.0
  0
LINE
  5
138
  8
MAKE2D$VISIBILE$CURVE
 62
     7
 10
603.5395576399096
 20
-1.43
 30
0.0
 11
792.4761341328776
 21
-1.43
 31
0.0
  0
ARC
  5
139
  8
MAKE2D$VISIBILE$CURVESILHO
 62
     7
 10
1072.506887630339
 20
1.569999997093873
 30
0.0
 40
2.999999997066533
 50
269.9999983350137
 51
0.0000017753335317
  0
ARC
  5
13A
  8
MAKE2D$VISIBILE$CURVE
 62
     7
 10
1072.506887630339
 20
1.569999997093873
 30
0.0
 40
2.999999997066533
 50
269.9999983350137
 51
0.0000017753335317
  0
ARC
  5
13B
  8
MAKE2D$VISIBILE$CURVE
 62
     7
 10
-544.9103435648976
 20
1.569999997141537
 30
0.0
 40
2.999999997114175
 50
179.9999982255768
 51
270.0000016663021
210
0.0
220
0.0
230
-1.0
  0
LINE
  5
13C
  8
MAKE2D$VISIBILE$CURVESILHO
 62
     7
 10
544.9103435701036
 20
-1.429999999970896
 30
0.0
 11
603.5395576399096
 21
-1.43
 31
0.0
  0
LINE
  5
13D
  8
MAKE2D$VISIBILE$CURVE
 62
     7
 10
544.9103435701036
 20
-1.429999999970896
 30
0.0
 11
603.5395576399096
 21
-1.43
 31
0.0
  0
LINE
  5
13E
  8
MAKE2D$VISIBILE$CURVESILHO
 62
     7
 10
989.2570082633683
 20
-1.43
 30
0.0
 11
1072.506887688081
 21
-1.429999999974534
 31
0.0
  0
LINE
  5
13F
  8
MAKE2D$VISIBILE$CURVE
 62
     7
 10
989.2570082633683
 20
-1.43
 30
0.0
 11
1072.506887688081
 21
-1.429999999974534
 31
0.0
  0
LINE
  5
140
  8
MAKE2D$VISIBILE$CURVESILHO
 62
     7
 10
530.9103435904763
 20
-1.429999999970896
 30
0.0
 11
544.9103435701036
 21
-1.429999999970896
 31
0.0
  0
LINE
  5
141
  8
MAKE2D$VISIBILE$CURVE
 62
     7
 10
530.9103435904763
 20
-1.429999999970896
 30
0.0
 11
544.9103435701036
 21
-1.429999999970896
 31
0.0
  0
ARC
  5
142
  8
MAKE2D$VISIBILE$CURVE
 62
     7
 10
-544.8828186207077
 20
1.569999997310703
 30
0.0
 40
2.999999997309716
 50
179.9999982288076
 51
269.4743269390719
210
0.0
220
0.0
230
-1.0
  0
ARC
  5
143
  8
MAKE2D$VISIBILE$CURVESILHO
 62
     7
 10
-530.9103435958604
 20
1.569999997136307
 30
0.0
 40
2.999999997108966
 50
269.9999983347054
 51
0.0000017745231051
210
0.0
220
0.0
230
-1.0
  0
ARC
  5
144
  8
MAKE2D$VISIBILE$CURVE
 62
     7
 10
-530.9103435958604
 20
1.569999997136307
 30
0.0
 40
2.999999997108966
 50
269.9999983347054
 51
0.0000017745231051
210
0.0
220
0.0
230
-1.0
  0
LINE
  5
145
  8
MAKE2D$VISIBILE$CURVESILHO
 62
     7
 10
527.9103435986835
 20
1.570000090050106
 30
0.0
 11
527.8828186541723
 21
707.000000001819
 31
0.0
  0
LINE
  5
146
  8
MAKE2D$VISIBILE$CURVE
 62
     7
 10
527.9103435986835
 20
1.570000090050106
 30
0.0
 11
527.8828186541723
 21
707.000000001819
 31
0.0
  0
LINE
  5
147
  8
MAKE2D$VISIBILE$CURVE
 62
     7
 10
547.8828186179089
 20
707.0000000018335
 30
0.0
 11
547.9103435620127
 21
1.570000090050163
 31
0.0
  0
LINE
  5
148
  8
MAKE2D$VISIBILE$CURVE
 62
     7
 10
601.241789522981
 20
1.569999975712946
 30
0.0
 11
601.241789522981
 21
707.0000000243308
 31
0.0
  0
LINE
  5
149
  8
MAKE2D$VISIBILE$CURVE
 62
     7
 10
986.9614285409843
 20
707.0000000243308
 30
0.0
 11
986.9614287078075
 21
1.569999975698278
 31
0.0
  0
LINE
  5
14A
  8
MAKE2D$VISIBILE$CURVESILHO
 62
     7
 10
1075.506887627351
 20
1.570000090050131
 30
0.0
 11
1075.506887627405
 21
706.9999999099643
 31
0.0
  0
VIEWPORT
  5
14F
 67
     1
  8
0
 10
6.0
 20
4.5
 30
0.0
 40
12.696
 41
9.522
 68
     1
 69
     1
1001
ACAD
1000
MVIEW
1002
{
1070
    16
1010
0.0
1020
0.0
1030
0.0
1010
0.0
1020
0.0
1030
1.0
1040
0.0
1040
9.522
1040
6.0
1040
4.5
1040
50.0
1040
0.0
1040
0.0
1070
     0
1070
   100
1070
     0
1070
     3
1070
     0
1070
     0
1070
     0
1070
     0
1040
0.0
1040
0.0
1040
0.0
1040
10.0
1040
10.0
1040
10.0
1040
10.0
1070
     0
1002
{
1002
}
1002
}
  0
VIEWPORT
  5
151
 67
     1
  8
QUOTE
 10
128.5
 20
97.5
 30
0.0
 40
277.0
 41
190.0
 68
     2
 69
     2
1001
ACAD
1000
MVIEW
1002
{
1070
    16
1010
1180.818454571749
1020
865.4190336894859
1030
0.00000380024601
1010
0.0
1020
0.0
1030
1.0
1040
0.0
1040
1887.610722891727
1040
0.0
1040
0.0
1040
50.0
1040
0.0
1040
0.0
1070
     0
1070
   100
1070
     0
1070
     3
1070
     0
1070
     0
1070
     0
1070
     0
1040
0.0
1040
0.0
1040
0.0
1040
10.0
1040
10.0
1040
10.0
1040
10.0
1070
     0
1002
{
1002
}
1002
}
  0
ENDSEC
  0
EOF
